<?xml version="1.0" standalone="no"?>
<!DOCTYPE svg PUBLIC "-//W3C//DTD SVG 1.1//EN" "http://www.w3.org/Graphics/SVG/1.1/DTD/svg11.dtd" >
<svg xmlns="http://www.w3.org/2000/svg">
<metadata>
This is a custom SVG webfont generated by Font Squirrel.
Copyright   : Copyright c 2011 Carolina Giovagnoli carohuertatipograficacomarCopyright c 2011 Andres Torresi andreshuertatipograficacomarwith Reserved Font Name Cambo
Designer    : Carolina Giovagnoli Andres Torresi
Foundry     : Carolina Giovagnoli Andres Torresi
Foundry URL : httpwwwhuertatipograficacomar
</metadata>
<defs>
<font id="CamboRegular" horiz-adv-x="735" >
<font-face units-per-em="2048" ascent="1638" descent="-410" />
<missing-glyph horiz-adv-x="518" />
<glyph unicode=" "  horiz-adv-x="518" />
<glyph unicode="&#x09;" horiz-adv-x="518" />
<glyph unicode="&#xa0;" horiz-adv-x="518" />
<glyph unicode="!" horiz-adv-x="444" d="M100 98q0 47 30 79t77 32q49 0 78.5 -32t29.5 -79t-29.5 -79.5t-78.5 -32.5t-78 32.5t-29 79.5zM119 1380q47 37 131 37q123 0 123 -166q0 -76 -47.5 -383t-57.5 -446l-114 -21q0 55 3 208t3 241q0 350 -41 530z" />
<glyph unicode="&#x22;" horiz-adv-x="602" d="M72 1401q0 43 24.5 66.5t65.5 23.5q39 0 64.5 -24.5t25.5 -65.5l-57 -350h-64q-59 287 -59 350zM350 1401q0 43 24.5 66.5t65.5 23.5q39 0 64.5 -24.5t25.5 -65.5l-57 -350h-63q-59 287 -60 350z" />
<glyph unicode="#" horiz-adv-x="1245" d="M55 266l23 117h262l74 279h-244l23 116h253l74 275l113 -27l-68 -248h273l73 275l113 -27l-68 -248h226l-23 -116h-233l-76 -279h217l-23 -117h-227l-76 -284l-110 28l67 256h-272l-76 -284l-110 28l67 256h-252zM459 383h272l74 279h-270z" />
<glyph unicode="$" horiz-adv-x="1087" d="M123 326q0 49 36 80.5t85 31.5q61 0 96 -39q-14 -43 -14 -77q0 -74 56 -120t146 -50v450q-57 23 -75.5 30t-68.5 29.5t-70.5 38t-56.5 45t-50 58t-27.5 68.5t-13.5 87q0 131 101.5 216.5t260.5 93.5v149l13 15q35 0 75 -11v-155q139 -12 232.5 -78t93.5 -154 q0 -61 -26.5 -98t-71.5 -37q-57 0 -107 37q23 35 23 80q0 55 -39 94t-105 51v-405q63 -25 101.5 -41.5t91.5 -49t83 -65.5t51.5 -85t21.5 -114q0 -145 -93.5 -237t-255.5 -113v-147l-12 -15q-35 1 -76 11v147q-190 0 -297.5 74t-107.5 205zM348 969q0 -61 46 -101t134 -77 v372q-180 -16 -180 -194zM616 160q166 35 166 194q0 131 -166 211v-405z" />
<glyph unicode="%" horiz-adv-x="1560" d="M84 973q0 170 74.5 264t224 94t225.5 -94t76 -264t-75.5 -266.5t-225.5 -96.5q-147 0 -223 96.5t-76 266.5zM254 973q0 -137 27.5 -207t101.5 -70q76 0 103.5 70t27.5 207t-27.5 205.5t-103.5 68.5q-74 0 -101.5 -68.5t-27.5 -205.5zM338 45l756 1323l118 -57l-761 -1334 zM877 348q0 170 74.5 264.5t224 94.5t225.5 -94.5t76 -264.5q0 -168 -85 -265t-237 -97q-279 0 -278 362zM1047 348q0 -137 27.5 -206.5t101.5 -69.5q76 0 103.5 69.5t27.5 206.5t-28 206t-103 69q-74 0 -101.5 -69t-27.5 -206z" />
<glyph unicode="&#x26;" horiz-adv-x="1560" d="M123 416q0 299 291 395q-176 80 -176 274q0 131 116.5 220.5t288.5 89.5q166 0 278.5 -74t112.5 -186q0 -66 -29.5 -106t-76.5 -40q-63 0 -111 39q23 41 23 88q0 74 -55.5 121t-141.5 47q-96 0 -154.5 -54t-58.5 -147q0 -84 57.5 -148.5t186.5 -66.5v-106 q-160 -18 -253 -107.5t-93 -228.5q0 -326 409 -326q203 0 330 108.5t127 321.5q0 145 -61 273q-100 -4 -143.5 -26.5t-43.5 -69.5q0 -51 43 -89q-41 -41 -98 -40q-49 0 -80 35.5t-31 93.5q0 92 93.5 141t269.5 49q219 0 219 100q0 51 -43 88q41 41 98 41q49 0 80 -32.5 t31 -85.5q0 -197 -316 -203q74 -143 74 -303q0 -244 -156.5 -378t-420.5 -134q-270 0 -428 115.5t-158 310.5z" />
<glyph unicode="'" horiz-adv-x="323" d="M72 1401q0 43 24.5 66.5t65.5 23.5q39 0 64.5 -24.5t25.5 -65.5l-57 -350h-64q-59 287 -59 350z" />
<glyph unicode="(" horiz-adv-x="595" d="M82 643q0 451 286 777q70 80 126 120l51 -53q-311 -326 -312 -842q1 -518 312 -844l-51 -53q-16 12 -44 35.5t-99.5 106.5t-126 178.5t-98.5 251t-44 323.5z" />
<glyph unicode=")" horiz-adv-x="595" d="M51 -199q311 326 311 844q0 516 -311 842l51 53q16 -12 44 -35.5t99.5 -106.5t126 -178.5t98.5 -252t44 -324.5q0 -450 -285 -775q-71 -80 -127 -120z" />
<glyph unicode="*" horiz-adv-x="763" d="M61 1194q0 35 22.5 57.5t57.5 22.5q18 0 82 -27.5t127 -34.5q-33 45 -79 79t-68.5 57.5t-22.5 58.5q0 31 23.5 53.5t58.5 22.5q49 0 62.5 -28t22.5 -98.5t34 -125.5q25 57 35 128t23.5 97.5t62.5 26.5q33 0 56.5 -24.5t23.5 -55.5q0 -35 -22.5 -56.5t-68 -56.5t-77.5 -78 q57 6 122.5 34t86.5 28q35 0 57 -22.5t22 -57.5t-23.5 -57.5t-55.5 -22.5q-20 0 -86 27.5t-123 34.5q35 -49 80 -82t66.5 -53.5t21.5 -55.5q0 -33 -23.5 -57.5t-58.5 -24.5q-45 0 -68 43q-10 16 -17 84t-34 127q-29 -59 -35 -127.5t-14 -83.5q-27 -43 -70 -43 q-35 0 -58.5 25.5t-23.5 54.5q0 27 15.5 47.5t36 32.5t54 42t62.5 71q-61 -6 -123.5 -34t-83.5 -28q-35 0 -57.5 22.5t-22.5 57.5z" />
<glyph unicode="+" horiz-adv-x="1116" d="M127 549v117h358v370h133v-370h371v-117h-371v-371h-133v371h-358z" />
<glyph unicode="," horiz-adv-x="425" d="M113 109q0 45 34.5 74.5t88.5 29.5q59 0 94 -43t35 -113q0 -209 -211 -338l-37 52q125 84 125 192q0 74 -64 74q-6 0 -39 -8q-27 27 -26 80z" />
<glyph unicode="-" d="M61 494v118h613v-118h-613z" />
<glyph unicode="." horiz-adv-x="405" d="M100 102.5q0 47.5 30 79t77 31.5q49 0 78.5 -31.5t29.5 -79t-29.5 -80t-78.5 -32.5t-78 32.5t-29 80z" />
<glyph unicode="/" horiz-adv-x="792" d="M-20 -236l690 1790l123 -45l-691 -1790z" />
<glyph unicode="0" horiz-adv-x="1216" d="M102 663.5q0 317.5 127 494.5t379 177t379 -177t127 -494.5t-127 -496.5t-379 -179t-379 179t-127 496.5zM303 664q0 -285 63.5 -426.5t241.5 -141.5t241.5 141.5t63.5 426.5q0 283 -63.5 423t-241.5 140t-241.5 -140.5t-63.5 -422.5z" />
<glyph unicode="1" horiz-adv-x="878" d="M86 0l6 76q193 20 295 63v977h-291v94q221 23 410 121l74 -28v-1164q78 -41 272 -63l-8 -76h-758z" />
<glyph unicode="2" horiz-adv-x="1091" d="M104 0v125q367 315 505.5 500.5t138.5 355.5q0 252 -224 252q-98 0 -157.5 -58.5t-59.5 -144.5q0 -68 45 -127q-43 -47 -112 -47q-57 0 -95.5 39t-38.5 123q0 125 124 221t294 96q199 0 313.5 -100t114.5 -274q0 -168 -141 -354.5t-475 -444.5h670v-162h-902z" />
<glyph unicode="3" horiz-adv-x="1067" d="M78 285q0 57 37 89t90 32q57 0 104 -37q-18 -49 -18 -95q0 -84 62.5 -135t170.5 -51q113 0 175.5 74t62.5 198q0 133 -94.5 210t-276.5 77v96q166 4 255 74t89 201q0 104 -53 160.5t-151.5 56.5t-152.5 -53.5t-54 -132.5q0 -45 22 -84q-51 -39 -110 -39q-47 0 -76 39 t-29 102q0 113 114.5 191.5t289.5 78.5q180 0 291.5 -89t111.5 -230q0 -229 -283 -320q299 -72 299 -338q0 -164 -120.5 -269t-319.5 -105q-203 0 -319.5 79.5t-116.5 219.5z" />
<glyph unicode="4" horiz-adv-x="1101" d="M41 406l453 909q127 0 184 -51l-463 -809h461v356q53 2 93 26.5t52 65.5h49v-446l191 -41v-84h-199v-330h-186v330h-619z" />
<glyph unicode="5" horiz-adv-x="1089" d="M104 266q0 63 34 99t91 36q61 0 107 -36q-18 -43 -19 -89q0 -84 62.5 -138t161.5 -54q262 0 262 340q0 147 -72 227t-205 80q-139 0 -295 -88l-59 62l57 585l41 33q178 -6 328 -6q125 0 272 4l43 -33q-4 -80 -16 -127h-553l-37 -379q131 57 258 58q199 0 314.5 -108.5 t115.5 -305.5q0 -190 -126 -317t-328 -127q-190 0 -313.5 79.5t-123.5 204.5z" />
<glyph unicode="6" horiz-adv-x="1110" d="M102 502q0 328 198 541t536 309l34 -78q-227 -92 -360 -221t-180 -328q125 78 270 78q186 0 302 -106.5t116 -280.5q0 -190 -124 -309t-325 -119q-231 0 -349 134t-118 380zM307 502q0 -412 262 -412q117 0 180.5 85t63.5 239q0 135 -60.5 210.5t-172.5 75.5 q-158 0 -271 -125q-2 -25 -2 -73z" />
<glyph unicode="7" horiz-adv-x="985" d="M51 1286l31 35q195 -4 414 -4l422 4l38 -96q-20 -29 -52 -78t-114.5 -186.5t-146 -257t-116 -255t-52.5 -212.5q0 -111 76 -166q-74 -86 -143 -86q-59 0 -102.5 57t-43.5 145q0 35 5 68t11.5 63.5t25 70.5t32.5 70.5t47 84t55.5 89.5t71.5 107.5t82 118.5t99.5 142.5 t111.5 160.5h-586q-37 -106 -47 -235q-22 -6 -43.5 -6t-42.5 6q-4 53 -12.5 136t-14.5 141t-6 83z" />
<glyph unicode="8" horiz-adv-x="1159" d="M113 346q0 209 260 359q-207 102 -207 296q0 152 114.5 243t301 91t294 -85t107.5 -232q0 -84 -60.5 -161t-162.5 -134q135 -59 211 -143t76 -224q0 -170 -126 -269t-335 -99q-221 0 -347 92t-126 266zM311 356q0 -123 73 -194.5t202 -71.5q123 0 192.5 71.5t69.5 194.5 q0 41 -10.5 75t-35 60.5t-45 45t-65.5 40t-68.5 30.5t-80 30t-76.5 29q-156 -102 -156 -310zM354 1016q0 -39 18.5 -73t40 -55.5t69.5 -46t78 -36.5t93 -37q141 92 142 252q0 100 -60.5 157.5t-154.5 57.5q-106 0 -166 -58.5t-60 -160.5z" />
<glyph unicode="9" horiz-adv-x="1099" d="M84 913q0 190 124 309t324 119q231 0 349 -134t118 -380q0 -328 -197.5 -541t-535.5 -309l-35 78q225 92 359.5 220t179.5 327q-125 -76 -268 -76q-186 0 -302 106.5t-116 280.5zM289 915q0 -135 60.5 -210.5t172.5 -75.5q156 0 271 125q0 10 1 34.5t1 38.5 q0 412 -263 412q-117 0 -180 -85t-63 -239z" />
<glyph unicode=":" horiz-adv-x="432" d="M125 127q0 47 29.5 79t76.5 32q49 0 79 -32t30 -79t-29.5 -80t-79 -33t-78 33t-28.5 80zM125 850q0 47 29.5 79t76.5 32q49 0 79 -32t30 -79t-29.5 -80t-79 -33t-78 33t-28.5 80z" />
<glyph unicode=";" horiz-adv-x="450" d="M127 109q0 45 35 74.5t88 29.5q59 0 94 -43t35 -113q0 -209 -211 -338l-37 52q125 84 125 192q0 74 -63 74q-6 0 -39 -8q-27 27 -27 80zM141 850q0 47 30 79t77 32q49 0 78.5 -32t29.5 -79t-29.5 -80t-78.5 -33t-78 33t-29 80z" />
<glyph unicode="&#x3c;" horiz-adv-x="1167" d="M133 535v112l846 402l55 -113l-727 -346l727 -344l-55 -113z" />
<glyph unicode="=" horiz-adv-x="1116" d="M137 369v116h842v-116h-842zM137 684v117h842v-117h-842z" />
<glyph unicode="&#x3e;" horiz-adv-x="1167" d="M133 246l727 344l-727 346l55 113l846 -404v-110l-846 -402z" />
<glyph unicode="?" horiz-adv-x="876" d="M104 1178q0 111 101.5 168t234.5 57q166 0 265.5 -67.5t99.5 -213.5q0 -86 -37 -158.5t-89 -124t-103.5 -98.5t-88 -99t-36.5 -107q0 -44 12 -97q-45 -37 -96.5 -37t-80 40t-28.5 98q0 82 38 148.5t93 113.5t110.5 94t93.5 111.5t38 142.5q0 72 -52.5 116t-127.5 44 q-68 0 -112 -28t-44 -85q0 -37 24 -80q-43 -66 -106 -65q-109 0 -109 127zM264 98q0 47 30 79t77 32q49 0 78.5 -32t29.5 -79t-29.5 -79.5t-78.5 -32.5t-78 32.5t-29 79.5z" />
<glyph unicode="@" horiz-adv-x="1966" d="M123 487.5q0 370.5 241.5 619.5t641.5 249q395 0 624.5 -215t229.5 -551q0 -262 -105.5 -429t-302.5 -167q-238 0 -295 117q-125 -109 -283 -109q-121 0 -186 62.5t-65 175.5q0 270 362 301l154 12v149q0 102 -39 150.5t-123 48.5q-74 0 -115 -25.5t-41 -72.5 q0 -45 64 -70q0 -106 -123 -106q-57 0 -90 34.5t-33 88.5q0 109 93 171t245 62q164 0 255 -74.5t91 -206.5v-462q0 -141 141 -142q92 0 145.5 143.5t53.5 348.5q0 293 -165 482.5t-492 189.5q-309 0 -498 -222.5t-189 -552t182.5 -552t483.5 -222.5q191 0 336 92l61 -79 q-164 -106 -397 -107q-391 0 -626.5 249t-235.5 619.5zM805 258q0 -160 123 -160q98 0 211 113v248l-146 -13q-88 -8 -138 -60t-50 -128z" />
<glyph unicode="A" horiz-adv-x="1452" d="M0 0l12 82q109 14 168 57l455 1247h168l491 -1249q51 -39 158 -55l-10 -82h-584l12 82q131 14 195 55l-125 328h-498l-116 -330q68 -37 204 -53l-10 -82h-520zM483 580h414l-215 561z" />
<glyph unicode="B" horiz-adv-x="1331" d="M88 0l12 82q127 14 199 57v1106q-72 43 -211 58l10 81h576q497 0 497 -345q0 -230 -241 -302q141 -43 221 -132t80 -214q0 -180 -132 -285.5t-368 -105.5h-643zM494 109h237q147 0 223 71.5t76 208.5t-89 212t-265 75h-182v-567zM494 784h184q156 0 228.5 61.5 t72.5 188.5t-74 187.5t-233 60.5q-61 0 -178 -6v-492z" />
<glyph unicode="C" horiz-adv-x="1239" d="M98 688q0 709 627 709q109 0 205 -27t166.5 -94.5t70.5 -165.5q0 -74 -37.5 -123t-89.5 -49q-45 0 -80.5 23.5t-46.5 62.5q41 59 41 111q0 74 -62.5 111.5t-164.5 37.5q-219 0 -315.5 -140t-96.5 -455.5t94.5 -453t315.5 -137.5q35 0 73 7.5t98 30t112.5 78.5t83.5 140 l102 -37q-33 -88 -88 -154.5t-108.5 -99t-116 -51t-95 -22.5t-61.5 -4q-326 0 -476.5 170t-150.5 532z" />
<glyph unicode="D" horiz-adv-x="1454" d="M88 0l12 82q127 14 199 57v1106q-74 41 -211 58l10 81h500q381 0 570.5 -166.5t189.5 -525.5q0 -365 -190.5 -528.5t-581.5 -163.5h-498zM494 109h129q260 0 388 131t128 452q0 317 -126 450.5t-384 133.5q-61 0 -96 -1t-39 -1v-1165z" />
<glyph unicode="E" horiz-adv-x="1296" d="M88 0l12 82q145 16 199 57v1106q-74 41 -211 58l10 81h1045l18 -331q-25 -10 -61 -11q-23 0 -33 2q-29 133 -102 224h-471v-510l317 22q88 6 123 146h70v-430h-70q-31 154 -125 159l-315 23v-553h524q74 98 104 248q29 4 43 4q10 0 47 -4l-20 -373h-1104z" />
<glyph unicode="F" horiz-adv-x="1228" d="M88 0l12 82q145 16 199 57v1106q-74 41 -211 58l10 81h1045l18 -331q-31 -10 -61 -11q-23 0 -33 2q-29 133 -102 224h-471v-510l317 22q88 6 123 146h70v-430h-70q-31 154 -125 159l-315 23v-539q63 -41 211 -57l-11 -82h-606z" />
<glyph unicode="G" horiz-adv-x="1347" d="M98 688q0 707 627 707q111 0 208 -27t172 -97.5t75 -174.5q0 -66 -39 -112t-88 -46q-45 0 -81 23.5t-46 62.5q41 59 41 111q0 70 -70 108.5t-170 38.5q-219 0 -315.5 -140.5t-96.5 -453.5t91.5 -451.5t298.5 -138.5q147 0 284 47v402l-215 16v82l406 31v-588 q-246 -102 -475 -102q-311 0 -459 171t-148 531z" />
<glyph unicode="H" horiz-adv-x="1630" d="M88 0l12 82q127 14 199 57v1106q-74 41 -211 58l10 81h607l-13 -81q-127 -14 -198 -58v-477h643v477q-74 41 -211 58l10 81h606l-12 -81q-127 -14 -199 -58v-1106q74 -41 211 -57l-10 -82h-606l12 82q127 14 199 57v514h-643v-514q74 -41 211 -57l-11 -82h-606z" />
<glyph unicode="I" horiz-adv-x="821" d="M102 0l13 82q127 14 198 57v1106q-74 41 -211 58l11 81h606l-12 -81q-127 -14 -199 -58v-1106q74 -41 211 -57l-10 -82h-607z" />
<glyph unicode="J" horiz-adv-x="737" d="M43 -299q117 51 186.5 135t69.5 232v1177q-74 41 -211 58l10 81h607l-13 -81q-127 -14 -198 -58v-1145q0 -193 -109.5 -302.5t-316.5 -164.5z" />
<glyph unicode="K" horiz-adv-x="1386" d="M88 0l12 82q127 14 199 57v1106q-74 41 -211 58l10 81h607l-13 -81q-127 -14 -198 -58v-1106q74 -41 211 -57l-11 -82h-606zM512 735l412 461q18 18 18 41q0 53 -131 61l14 86h512l-8 -81q-158 -10 -215 -84l-397 -443l457 -598q72 -78 212 -94l-12 -84h-344 q0 53 -37 104z" />
<glyph unicode="L" horiz-adv-x="1159" d="M88 0l12 82q127 14 199 57v1106q-74 41 -211 58l10 81h607l-13 -81q-127 -14 -198 -58v-1120h471q16 20 29.5 51t20.5 51.5t17 61.5t12 47l89 -12l-56 -324h-989z" />
<glyph unicode="M" horiz-adv-x="1939" d="M80 0l12 82q127 14 199 57v1106q-74 41 -211 58l10 81h455l440 -1112l424 1112h451l-13 -81q-127 -14 -198 -58v-1106q74 -41 211 -57l-11 -82h-598l13 82q127 14 198 57h-8v1020l-434 -1159h-131l-457 1178v-1039q74 -41 211 -57l-10 -82h-553z" />
<glyph unicode="N" horiz-adv-x="1554" d="M61 0l13 82q127 14 198 57v1106q-74 41 -211 58l11 81h364l735 -1022v883q-74 41 -210 58l10 81h553l-13 -81q-127 -14 -198 -58v-1245h-133l-766 1065v-926q74 -41 211 -57l-11 -82h-553z" />
<glyph unicode="O" horiz-adv-x="1409" d="M98 692q0 702 606 702h1q606 0 606 -702q0 -704 -606.5 -704t-606.5 704zM315 692.5q0 -315.5 87 -455t302.5 -139.5t303.5 139.5t88 455t-88 453.5t-303.5 138t-302.5 -138t-87 -453.5z" />
<glyph unicode="P" horiz-adv-x="1249" d="M90 0l12 82q127 14 199 57v1106q-74 41 -211 58l10 81h592q483 0 484 -387q0 -219 -148.5 -307t-431.5 -88h-100v-463q74 -41 211 -57l-11 -82h-606zM496 702h100q381 0 381 299q0 145 -74 218t-211 73q-74 0 -196 -18v-572z" />
<glyph unicode="Q" horiz-adv-x="1409" d="M98 692q0 702 606 702l1 1q606 0 606 -703q0 -627 -477 -694q39 -100 128 -179t203 -118q4 -8 4 -18q0 -29 -24 -50q-343 62 -488 357q-559 25 -559 702zM315 692.5q0 -315.5 87 -455t302.5 -139.5t303.5 139.5t88 455t-88 453.5t-303.5 138t-302.5 -138t-87 -453.5z" />
<glyph unicode="R" horiz-adv-x="1398" d="M98 0l13 82q127 14 198 57v1106q-72 43 -211 58l11 81h591q504 0 504 -366q0 -274 -299 -346q66 -41 129 -170l170 -363q57 -39 182 -55l-12 -84h-332l-188 461q-53 127 -95 154.5t-179 27.5h-76v-504q55 -35 211 -57l-10 -82h-607zM504 743h100q401 0 402 279 q0 270 -306 270q-82 0 -196 -18v-531z" />
<glyph unicode="S" horiz-adv-x="1161" d="M145 98v357l111 12q25 -201 78 -324q121 -47 246 -47q123 0 196.5 63.5t73.5 176.5q0 76 -38 131t-98.5 89t-133 62.5t-145.5 61.5t-133 76t-98 113.5t-38 166.5q0 166 118.5 265.5t329.5 99.5q168 0 289 -80t121 -197q0 -139 -111 -139q-84 0 -127 64q47 43 48 110 q0 55 -58.5 92t-163.5 37q-121 0 -189.5 -53t-68.5 -154q0 -70 39 -121t99.5 -83.5t135 -62.5t149.5 -64.5t135.5 -79.5t99.5 -121t39 -176q0 -186 -136.5 -287.5t-363.5 -101.5q-113 0 -233 38.5t-173 75.5z" />
<glyph unicode="T" horiz-adv-x="1204" d="M45 1018v373q287 -6 557 -7l557 7v-373q-33 -4 -45 -4q-20 0 -53 4q-8 131 -90 252q-115 12 -271 14v-1145q74 -41 211 -57l-10 -82h-606l12 82q127 14 199 57v1145q-178 -2 -273 -12q-41 -55 -64.5 -128t-25.5 -126q-33 -4 -53 -4q-12 0 -45 4z" />
<glyph unicode="U" horiz-adv-x="1581" d="M70 1303l10 81h610l-12 -81q-127 -16 -199 -58v-788q0 -190 83 -274.5t263 -84.5q174 0 270.5 96.5t96.5 274.5v776q-72 43 -211 58l10 81h553l-12 -81q-127 -16 -199 -58v-776q0 -233 -132 -359t-376 -126q-287 0 -415.5 112.5t-128.5 360.5v788q-72 43 -211 58z" />
<glyph unicode="V" horiz-adv-x="1431" d="M0 1303l10 81h584l-12 -81q-127 -14 -199 -58l354 -977l355 979q-74 39 -207 56l10 81h537l-13 -81q-119 -16 -182 -58l-469 -1245h-131l-471 1247q-59 39 -166 56z" />
<glyph unicode="W" horiz-adv-x="2103" d="M4 1303l10 81h619l-12 -81q-125 -14 -197 -58l250 -979l348 1104h117l358 -1085l254 960q-74 41 -211 58l10 81h557l-12 -81q-133 -14 -203 -58l-346 -1245h-155l-340 1038l-332 -1038h-162l-346 1247q-74 39 -207 56z" />
<glyph unicode="X" horiz-adv-x="1441" d="M-4 0l12 82q90 6 144.5 30.5t95.5 80.5l375 497l-390 539q-27 35 -67.5 50t-128.5 24l10 81h617l-13 -81q-127 -12 -174 -60l283 -393l297 395q-72 45 -174 58l10 81h498l-13 -81q-139 -12 -190 -82l-354 -471l405 -562q63 -88 209 -106l-10 -82h-623l12 82q143 0 191 61 l-322 445l-340 -451q37 -55 207 -55l-10 -82h-557z" />
<glyph unicode="Y" horiz-adv-x="1323" d="M-4 1303l10 81h596l-12 -81q-131 -16 -193 -50l299 -542l303 540q-70 35 -208 52l10 81h526l-12 -81q-131 -4 -176 -66l-373 -682v-416q76 -41 221 -57l-10 -82h-627l12 82q133 14 209 57v402l-389 688q-45 59 -186 74z" />
<glyph unicode="Z" horiz-adv-x="1236" d="M86 100l776 1170q-25 0 -86 1t-98 1q-246 0 -354 -8q-78 -68 -105 -240q-29 -4 -47 -4q-14 0 -39 4l-27 319l58 50q295 -8 516 -9q193 0 422 9l18 -86l-794 -1192q59 -2 200 -2q250 0 355 2q104 127 141 278q29 4 49 4q18 0 47 -4l-18 -399q-150 6 -576 6l-430 -8z" />
<glyph unicode="[" horiz-adv-x="634" d="M205 -248v1782h379v-70l-238 -20v-1600l238 -20v-72h-379z" />
<glyph unicode="\" horiz-adv-x="798" d="M0 1509l123 45l676 -1757l-123 -45z" />
<glyph unicode="]" horiz-adv-x="634" d="M51 -176l238 20v1600l-238 20v70h379v-1782h-379v72z" />
<glyph unicode="^" horiz-adv-x="1079" d="M82 614l401 703h113l401 -703l-112 -55l-346 604l-344 -604z" />
<glyph unicode="_" horiz-adv-x="1103" d="M0 -104h1104v-117h-1104v117z" />
<glyph unicode="`" horiz-adv-x="440" d="M70 1427q0 29 23.5 52.5t56.5 23.5q47 0 69 -37l184 -256l-49 -53l-229 184q-55 45 -55 86z" />
<glyph unicode="a" horiz-adv-x="1040" d="M106 238q0 143 101.5 225t296.5 96l174 12v181q0 111 -44 161t-140 50q-174 0 -175 -101q0 -55 68 -82q0 -104 -127 -104q-57 0 -92 34.5t-35 92.5q0 115 97.5 181.5t263.5 66.5q176 0 274 -79t98 -220v-617q51 -39 154 -59l-8 -76h-305l-23 98q-120 -114 -298 -114h-3 q-131 0 -204 66.5t-73 187.5zM301 256q0 -180 139 -180q111 0 238 127v278l-166 -14q-98 -8 -154.5 -65.5t-56.5 -145.5z" />
<glyph unicode="b" horiz-adv-x="1126" d="M29 1354l6 65q84 14 293 76l43 -22v-576q88 154 254 154q217 0 317 -141.5t100 -387.5q0 -240 -118.5 -389t-341.5 -149q-137 0 -250 108q-31 -45 -45 -92h-105v1225q0 70 -35.5 97.5t-117.5 31.5zM371 188q118 -110 217 -110h2q80 0 133 38t77.5 109.5t33 139t8.5 157.5 q0 100 -6.5 166t-27 133.5t-66.5 101t-117 33.5q-82 0 -135.5 -42t-78 -120.5t-32.5 -156.5t-8 -184v-265z" />
<glyph unicode="c" horiz-adv-x="960" d="M84 514q0 530 473 530q152 0 246 -64.5t94 -168.5q0 -53 -35 -92t-82 -39q-41 0 -73.5 22.5t-40.5 57.5q29 45 28 80q0 55 -38 90t-99 35q-139 0 -203.5 -107.5t-64.5 -343.5q0 -233 60.5 -334.5t197.5 -101.5h2q181 0 252 194l90 -30q-37 -117 -129 -184.5t-215 -67.5 q-242 0 -352.5 126t-110.5 398z" />
<glyph unicode="d" horiz-adv-x="1136" d="M84 496q0 270 125 412.5t360 142.5q86 0 181 -37v194q0 82 -34 112t-120 34l6 65q84 14 293 76l43 -22v-1338q55 -41 154 -59l-9 -76h-317l-16 127q-90 -141 -273 -141q-393 0 -393 510zM279 496q0 -213 53 -314.5t166 -101.5q252 0 252 438v393q-78 45 -187 45 q-133 0 -208.5 -120.5t-75.5 -339.5z" />
<glyph unicode="e" horiz-adv-x="995" d="M86 524q0 246 114.5 386.5t336.5 140.5q213 0 299 -115t92 -342l-45 -59h-594v-33q0 -78 4 -132.5t19.5 -113.5t43 -95t77.5 -59.5t120 -23.5q156 0 258 121l70 -70q-125 -145 -336 -145q-248 0 -353.5 137t-105.5 403zM289 616l440 17q0 172 -43 250t-158 78 q-233 -1 -239 -345z" />
<glyph unicode="f" horiz-adv-x="749" d="M80 997q111 18 174 39v121q0 184 76 296t243 112q109 0 190 -59.5t81 -149.5q0 -66 -35 -101.5t-80 -35.5q-37 0 -64.5 22.5t-35.5 63.5q41 41 41 79q0 35 -30 59.5t-81 24.5q-143 0 -143 -174q0 -35 13 -125t13 -133h230v-114h-230v-787q51 -37 168 -59l-8 -76h-502 l9 80q88 14 145 55v787h-164z" />
<glyph unicode="g" horiz-adv-x="1069" d="M94 -203q0 111 37 163t133 106q-49 53 -49 145l182 129q-131 31 -203.5 121t-72.5 221q0 369 405 369q147 0 244 -54q82 25 82 86q0 49 -61 80q0 33 28.5 53.5t75.5 20.5q49 0 80 -29.5t31 -79.5q0 -135 -156 -192q82 -94 82 -254q0 -162 -108.5 -258t-297.5 -96h-30 l-113 -138q2 -49 40 -67.5t120 -20.5h92q205 0 300 -77.5t95 -198.5q0 -307 -467 -307q-233 0 -351 74.5t-118 203.5zM295 -174q0 -217 268 -217q266 0 266 217q1 174 -245 174h-189q-100 -68 -100 -174zM322 688q0 -143 48 -206.5t156.5 -63.5t156.5 63.5t48 206.5t-48 209 t-156.5 66t-156.5 -66t-48 -209z" />
<glyph unicode="h" horiz-adv-x="1202" d="M68 0l8 80q88 14 145 55v1073q0 82 -33.5 112t-119.5 34l6 65q84 14 293 76l43 -22v-553q115 131 270 131q160 0 250 -81t90 -225v-610q51 -39 154 -59l-9 -76h-485l6 76q82 12 145 59v590q0 219 -188 219q-68 0 -132.5 -43t-100.5 -113v-653q55 -41 153 -59l-8 -76h-487 z" />
<glyph unicode="i" horiz-adv-x="612" d="M76 0l8 80q88 14 145 55v635q0 82 -33.5 111.5t-119.5 33.5l6 66q84 14 293 76l43 -23v-899q55 -41 153 -59l-8 -76h-487zM311 1470q117 0 117 -127q0 -129 -117 -129q-114 0 -114 127q0 129 114 129z" />
<glyph unicode="j" horiz-adv-x="626" d="M-45 -307q0 51 28.5 86t75.5 35q61 0 86 -43q-32 -28 -32 -69q0 -38 21.5 -60.5t60.5 -22.5q88 0 88 143q0 72 -13.5 184t-13.5 216h188v-234q0 -86 -9 -150.5t-34.5 -126t-78 -95t-129.5 -33.5q-104 0 -171 41t-67 129zM102 915l7 66q84 14 292 76l43 -23v-872h-188v608 q0 82 -34 111.5t-120 33.5zM213 1343q0 127 115 127q117 0 116 -127q1 -129 -116 -129q-115 0 -115 129z" />
<glyph unicode="k" horiz-adv-x="1124" d="M72 0l8 80q88 14 145 55v1073q0 82 -33.5 112t-119.5 34l6 65q84 14 293 76l43 -22v-863l284 303q49 51 68 123h295l6 -65q-150 -6 -236 -97l-196 -202l321 -533q72 -45 199 -63l-8 -76h-316l-321 543l-96 -99v-309q55 -41 153 -59l-8 -76h-487z" />
<glyph unicode="l" horiz-adv-x="618" d="M68 0l8 80q88 14 145 55v1073q0 82 -33.5 112t-119.5 34l6 65q84 14 293 76l43 -22v-1338q55 -41 153 -59l-8 -76h-487z" />
<glyph unicode="m" horiz-adv-x="1751" d="M70 0l8 80q88 14 145 55v631q0 82 -33.5 111.5t-119.5 33.5l6 66q45 8 270 74l39 -21l16 -115q16 20 42 45t90.5 58t130.5 33q199 0 282 -144q142 143 288 143q1 0 2 1q144 0 238 -80t93 -252v-584q51 -39 153 -59l-8 -76h-485l6 76q82 12 145 59v590q0 219 -166 219 q-74 0 -138 -54t-85 -118v-637q51 -39 154 -59l-8 -76h-486l6 76q82 12 146 59v590q0 219 -166 219q-74 0 -138.5 -54t-84.5 -118v-637q55 -41 153 -59l-8 -76h-487z" />
<glyph unicode="n" horiz-adv-x="1216" d="M68 0l8 80q88 14 145 55v631q0 82 -33.5 111.5t-119.5 33.5l6 66q45 8 270 74l39 -21l20 -137q115 158 291 158q160 0 250 -81t90 -225v-610q51 -39 154 -59l-8 -76h-486l6 76q82 12 146 59v590q0 219 -189 219q-76 0 -145.5 -51t-101.5 -133v-625q55 -41 153 -59l-8 -76 h-487z" />
<glyph unicode="o" horiz-adv-x="1081" d="M84 518q0 260 115.5 396.5t341 136.5t341 -136.5t115.5 -396.5q0 -262 -115.5 -398t-341 -136t-341 136t-115.5 398zM281 518.5q0 -229.5 61.5 -331t198.5 -101.5q139 0 200.5 101.5t61.5 330.5q0 227 -61.5 328.5t-201 101.5t-199.5 -100t-60 -329.5z" />
<glyph unicode="p" horiz-adv-x="1150" d="M59 -467l9 80q88 14 145 55v1098q0 82 -34 111.5t-120 33.5l7 66q45 8 270 74l39 -21l18 -133q90 152 281 152q393 0 393 -510q0 -270 -125 -412.5t-360 -142.5q-86 0 -181 34v-350q55 -41 154 -59l-8 -76h-488zM401 121q74 -43 187 -43q133 0 208.5 120.5t75.5 340.5 q0 213 -53 314t-166 101h-1q-251 0 -251 -417v-416z" />
<glyph unicode="q" horiz-adv-x="1128" d="M84 512q0 246 110.5 392.5t348.5 146.5q115 0 248 -105l32 90h119v-1368q55 -41 154 -59l-9 -76h-487l8 80q88 14 146 55v463q-88 -147 -252 -147q-217 0 -317.5 141t-100.5 387zM285 512q0 -78 3 -133t16 -115.5t35.5 -98.5t63.5 -62.5t99 -24.5q76 0 128 36t77.5 103.5 t36 141t10.5 169.5v318q-114 110 -215 110h-2q-70 0 -120 -29.5t-75 -68.5t-39 -106.5t-16 -115.5t-2 -124z" />
<glyph unicode="r" horiz-adv-x="901" d="M76 0l8 80q88 14 145 55v631q0 82 -33.5 111.5t-119.5 33.5l6 66q45 8 270 74l39 -21l23 -153q117 174 264 174q80 0 138 -47.5t58 -133.5q0 -55 -31.5 -96t-84.5 -41q-39 0 -72 18.5t-41 49.5q23 23 23 61q0 68 -63.5 68t-125 -94.5t-61.5 -198.5v-502q61 -41 174 -59 l-8 -76h-508z" />
<glyph unicode="s" horiz-adv-x="929" d="M117 72v272l119 14q14 -168 59 -252q74 -23 160 -23q2 1 4 1q88 0 143 50t55 122q0 63 -39.5 105t-99 61.5t-130.5 46.5t-130 55.5t-99 93t-40 156.5q0 125 99 200t265 75q139 0 237.5 -62.5t98.5 -152.5q0 -115 -102 -115q-78 0 -117 59q35 29 35 80q0 45 -48 74 t-118 29q-84 0 -134 -40t-50 -108q0 -76 56 -123t136 -72.5t161 -55.5t137 -95.5t56 -165.5q0 -150 -102 -231.5t-289 -81.5q-76 0 -175 25.5t-148 58.5z" />
<glyph unicode="t" horiz-adv-x="731" d="M41 922v61q217 74 283 268h88v-215h250v-114h-252v-682q0 -82 18 -117t84 -35t137 43l43 -65q-102 -82 -235 -82q-137 0 -186.5 62.5t-49.5 209.5v666h-180z" />
<glyph unicode="u" horiz-adv-x="1204" d="M29 915l6 66q84 14 293 76l43 -23v-719q0 -231 190 -231q57 0 120.5 42t113.5 132v512q0 82 -34 111.5t-120 33.5l6 66q84 14 293 76l43 -23v-899q51 -39 154 -59l-9 -76h-292l-23 139q-118 -155 -274 -155h-2q-355 0 -355 356v430q0 82 -33.5 111.5t-119.5 33.5z" />
<glyph unicode="v" horiz-adv-x="1112" d="M-2 971l6 65h492l-7 -65q-92 -12 -137 -49l234 -709l233 709q-47 35 -131 49l6 65h420l-6 -65q-135 -25 -150 -66l-333 -905h-148l-321 879q-25 68 -158 92z" />
<glyph unicode="w" horiz-adv-x="1587" d="M-4 971l6 65h492l-7 -65q-92 -12 -137 -49l199 -672l217 749h86l235 -749l197 672q-47 35 -131 49l6 65h418l-6 -65q-133 -25 -148 -66l-305 -905h-135l-201 627l-198 -627h-135l-295 879q-23 68 -158 92z" />
<glyph unicode="x" horiz-adv-x="1097" d="M10 0l8 80q47 4 67.5 7t48.5 14.5t42 29.5l285 375l-295 401q-37 51 -127 64l6 65h473l-10 -65q-80 -6 -133 -45l205 -281l200 264q-70 53 -147 62l6 65h444l-10 -65q-119 -14 -158 -66l-268 -352l307 -418q31 -43 131 -53l-10 -82h-477l8 80q102 10 139 37l-217 297 l-221 -291q41 -33 148 -43l-6 -80h-439z" />
<glyph unicode="y" horiz-adv-x="1126" d="M-2 969l6 67h481l-6 -65q-86 -10 -131 -49l256 -672l219 672q-47 35 -131 49l6 65h430l-6 -65q-143 -20 -159 -66l-383 -1108q-55 -160 -125 -227.5t-174 -67.5q-86 0 -144.5 48.5t-58.5 121.5q0 59 30.5 92t77.5 33q41 0 78 -24q-26 -36 -26 -73q0 -36 20.5 -57.5 t52.5 -21.5q47 0 83 47t71 156l53 166l-362 884q-29 72 -158 95z" />
<glyph unicode="z" horiz-adv-x="958" d="M78 84l571 852q-123 8 -166 8q-127 0 -198 -10q-43 -55 -60 -180q-31 -10 -63 -11q-31 0 -53 9l-21 243l55 45q20 0 164 -2t219 -2q203 0 332 6l21 -75l-580 -865q33 -2 211 -2q115 0 166 2q59 82 88 203q27 6 57 6q16 0 49 -4l-14 -262l-43 -51q-86 6 -313 6l-404 -8z " />
<glyph unicode="{" horiz-adv-x="587" d="M123 608v72q12 2 29.5 10t46 47t28.5 94q0 47 -27.5 185.5t-27.5 183.5q0 139 109.5 236.5t255.5 97.5v-70q-102 -8 -155.5 -78.5t-53.5 -171.5q0 -57 18.5 -157.5t18.5 -159.5q0 -172 -97 -252q96 -82 97 -254q0 -59 -18.5 -159.5t-18.5 -159.5q0 -98 53.5 -170 t155.5 -78v-72q-145 0 -255 97.5t-110 236.5q0 45 27.5 184.5t27.5 186.5q0 55 -25.5 93t-51.5 48z" />
<glyph unicode="|" horiz-adv-x="550" d="M205 -248v1782h141v-1782h-141z" />
<glyph unicode="}" horiz-adv-x="587" d="M51 -176q102 6 155.5 77.5t53.5 170.5q0 59 -18.5 159.5t-18.5 159.5q0 172 96 254q-96 80 -96 252q0 59 18.5 159.5t18.5 157.5q0 100 -53 171t-156 79v70q145 0 255 -97.5t110 -236.5q0 -45 -28 -183t-28 -186q0 -55 27 -93t52 -48l26 -10v-72q-12 -2 -29.5 -10 t-46.5 -47t-29 -94q0 -47 28 -186.5t28 -184.5q0 -139 -110 -236.5t-255 -97.5v72z" />
<glyph unicode="~" horiz-adv-x="1159" d="M82 547q135 176 293 176q63 0 228 -53.5t220 -53.5q100 0 207 89q27 -16 47 -43q-113 -182 -268 -183q-76 0 -244 55.5t-233 55.5q-99 0 -205 -88q-29 14 -45 45z" />
<glyph unicode="&#xa2;" horiz-adv-x="960" d="M84 651q0 211 100.5 337t290.5 149v225l12 14q35 0 76 -10v-225q147 -2 240.5 -66.5t93.5 -163.5q0 -51 -35 -88t-82 -37q-41 0 -73.5 21.5t-40.5 54.5q27 39 26 76q0 49 -37 79t-92 34v-791q168 6 238 184l90 -28q-35 -109 -123 -176.5t-205 -71.5v-229l-12 -15 q-35 0 -76 10v236q-391 35 -391 481zM289 651q0 -82 7 -140t25.5 -112.5t56.5 -87.5t97 -45v776q-109 -25 -147.5 -124t-38.5 -267z" />
<glyph unicode="&#xa3;" horiz-adv-x="1175" d="M61 131q0 76 55.5 122t139.5 46q61 0 141 -25q2 16 2 54q0 86 -61 282h-193q-10 41 -10 74l15 14h163q-45 154 -45 230q0 195 118 301t329 106q139 0 246.5 -69.5t107.5 -200.5q0 -68 -36 -112t-85 -44q-43 0 -76.5 20.5t-44.5 53.5q39 51 39 104q0 57 -45 94.5 t-125 37.5q-227 0 -227 -275q0 -82 49 -246h313q10 -41 11 -73l-15 -15h-282q29 -104 28 -172q0 -106 -38 -211q174 -59 323 -59q127 0 127 135q55 -2 89 -41t34 -96q0 -92 -66.5 -136t-173.5 -44q-37 0 -74.5 8t-63 14t-67.5 27.5t-55.5 29t-61.5 37t-54 33.5 q-96 -152 -244 -151q-78 0 -132.5 38.5t-54.5 108.5zM162 137q0 -68 84 -67q106 -1 139 118q-72 29 -129 29q-94 0 -94 -80z" />
<glyph unicode="&#xa5;" horiz-adv-x="1286" d="M31 1219l10 77h555l-10 -77q-115 -14 -174 -50l264 -491l270 491q-66 35 -190 50l10 77h489l-12 -77q-127 -4 -168 -66l-213 -397h232q10 -41 10 -74l-14 -14h-275l-74 -140h353q10 -41 10 -73l-14 -15h-349v-309q70 -37 211 -53l-10 -78h-594l10 78q131 14 199 53v309 h-371q-10 41 -10 74l14 14h359l-76 140h-287q-10 41 -10 73l14 15h234l-213 389q-43 59 -180 74z" />
<glyph unicode="&#xa9;" horiz-adv-x="1372" d="M98 690.5q0 241.5 172 411.5t416 170t416 -170t172 -411.5t-171 -411.5t-417 -170t-417 170t-171 411.5zM197 690q0 -207 144 -353.5t345 -146.5t345.5 146.5t144.5 353.5t-144.5 353.5t-345.5 146.5t-345 -146.5t-144 -353.5zM416 688.5q0 149.5 77.5 229t208.5 79.5 q102 0 166 -49t64 -117q0 -37 -22.5 -57t-51.5 -20q-57 0 -70 47q12 25 13 47q0 33 -28 52.5t-75 19.5q-68 0 -110.5 -56.5t-42.5 -175.5q0 -113 43 -170t110 -57q115 0 168 106l62 -35q-66 -150 -234 -149q-127 0 -202.5 78t-75.5 227.5z" />
<glyph unicode="&#xad;" d="M61 494v118h613v-118h-613z" />
<glyph unicode="&#xae;" horiz-adv-x="1372" d="M98 690.5q0 241.5 172 411.5t416 170t416 -170t172 -411.5t-171 -411.5t-417 -170t-417 170t-171 411.5zM197 690q0 -207 144 -353.5t345 -146.5t345.5 146.5t144.5 353.5t-144.5 353.5t-345.5 146.5t-345 -146.5t-144 -353.5zM422 397l8 49l80 21v463l-88 22l8 49h260 q225 0 225 -163q0 -115 -124 -150q35 -20 53 -63l74 -158l71 -18l-6 -52h-168l-78 201q-18 47 -38.5 58.5t-75.5 11.5v-201l86 -21l-7 -49h-280zM623 733h28q150 0 150 105q0 102 -111 102h-67v-207z" />
<glyph unicode="&#xb4;" horiz-adv-x="534" d="M70 1210l184 256q23 37 70 37q33 0 56 -23.5t23 -52.5q0 -41 -55 -86l-229 -184z" />
<glyph unicode="&#x2000;" horiz-adv-x="782" />
<glyph unicode="&#x2001;" horiz-adv-x="1565" />
<glyph unicode="&#x2002;" horiz-adv-x="782" />
<glyph unicode="&#x2003;" horiz-adv-x="1565" />
<glyph unicode="&#x2004;" horiz-adv-x="521" />
<glyph unicode="&#x2005;" horiz-adv-x="391" />
<glyph unicode="&#x2006;" horiz-adv-x="260" />
<glyph unicode="&#x2007;" horiz-adv-x="260" />
<glyph unicode="&#x2008;" horiz-adv-x="195" />
<glyph unicode="&#x2009;" horiz-adv-x="313" />
<glyph unicode="&#x200a;" horiz-adv-x="86" />
<glyph unicode="&#x2010;" d="M61 494v118h613v-118h-613z" />
<glyph unicode="&#x2011;" d="M61 494v118h613v-118h-613z" />
<glyph unicode="&#x2012;" d="M61 494v118h613v-118h-613z" />
<glyph unicode="&#x2013;" horiz-adv-x="1024" d="M0 494v118h1024v-118h-1024z" />
<glyph unicode="&#x2014;" horiz-adv-x="1740" d="M0 494v118h1741v-118h-1741z" />
<glyph unicode="&#x2018;" horiz-adv-x="354" d="M41 1206q0 168 170 283l43 -51q-90 -63 -90 -138q0 -35 17.5 -55t43.5 -20q23 0 41 10q27 -27 27 -80q0 -45 -35 -74.5t-88 -29.5q-59 0 -94 43t-35 112z" />
<glyph unicode="&#x2019;" horiz-adv-x="354" d="M61 1384q0 45 35 75t88 30q59 0 94 -43t35 -113q0 -167 -170 -282l-43 51q90 63 90 137q0 35 -17 55.5t-44 20.5q-23 0 -41 -10q-27 27 -27 79z" />
<glyph unicode="&#x201c;" horiz-adv-x="694" d="M41 1206q0 168 170 283l43 -51q-90 -63 -90 -138q0 -35 17.5 -55t43.5 -20q23 0 41 10q27 -27 27 -80q0 -45 -35 -74.5t-88 -29.5q-59 0 -94 43t-35 112zM381 1206q0 168 170 283l43 -51q-90 -63 -90 -138q0 -35 17.5 -55t43.5 -20q23 0 41 10q27 -27 27 -80 q0 -45 -35 -74.5t-88 -29.5q-59 0 -94 43t-35 112z" />
<glyph unicode="&#x201d;" horiz-adv-x="694" d="M61 1384q0 45 35 75t88 30q59 0 94 -43t35 -113q0 -167 -170 -282l-43 51q90 63 90 137q0 35 -17 55.5t-44 20.5q-23 0 -41 -10q-27 27 -27 79zM401 1384q0 45 35 75t88 30q59 0 94 -43t35 -113q0 -167 -170 -282l-43 51q90 63 90 137q0 35 -17 55.5t-44 20.5 q-23 0 -41 -10q-27 27 -27 79z" />
<glyph unicode="&#x2022;" horiz-adv-x="522" d="M72 657q0 78 57 134.5t133 56.5q78 0 133.5 -56.5t55.5 -134.5q0 -76 -56.5 -134t-132.5 -58q-74 0 -132 59.5t-58 132.5z" />
<glyph unicode="&#x2026;" horiz-adv-x="1215" d="M910 102.5q0 47.5 30 79t77 31.5q49 0 78.5 -31.5t29.5 -79t-29.5 -80t-78.5 -32.5t-78 32.5t-29 80zM505 102.5q0 47.5 30 79t77 31.5q49 0 78.5 -31.5t29.5 -79t-29.5 -80t-78.5 -32.5t-78 32.5t-29 80zM100 102.5q0 47.5 30 79t77 31.5q49 0 78.5 -31.5t29.5 -79 t-29.5 -80t-78.5 -32.5t-78 32.5t-29 80z" />
<glyph unicode="&#x202f;" horiz-adv-x="313" />
<glyph unicode="&#x205f;" horiz-adv-x="391" />
<glyph unicode="&#x20ac;" horiz-adv-x="1236" d="M68 535l14 14h127q-2 33 -2 102v35h-129q-10 41 -10 74l14 14h129q49 551 551 551q139 0 259 -69.5t120 -202.5q0 -72 -36 -118t-85 -46q-43 0 -74 22.5t-39 59.5q31 53 31 104q0 66 -52 99.5t-132 33.5q-166 0 -245 -103.5t-93 -330.5h348q10 -41 10 -74l-14 -14h-346 v-35q0 -70 2 -102h286q10 -41 11 -74l-15 -14h-276q23 -190 99.5 -274.5t232.5 -84.5q80 0 132 34t52 100q0 51 -31 104q8 37 39 59.5t74 22.5q49 0 85 -46t36 -118q0 -133 -121 -203.5t-258 -70.5q-246 0 -378 116.5t-167 360.5h-139q-10 41 -10 74z" />
<glyph unicode="&#x2122;" horiz-adv-x="3143" d="M1284 0l12 82q127 14 199 57v1106q-74 41 -211 58l10 81h455l440 -1112l424 1112h451l-13 -81q-127 -14 -198 -58v-1106q74 -41 211 -57l-11 -82h-598l13 82q127 14 198 57h-8v1020l-434 -1159h-131l-457 1178v-1039q74 -41 211 -57l-10 -82h-553zM45 1018v373 q287 -6 557 -7l557 7v-373q-33 -4 -45 -4q-20 0 -53 4q-8 131 -90 252q-115 12 -271 14v-1145q74 -41 211 -57l-10 -82h-606l12 82q127 14 199 57v1145q-178 -2 -273 -12q-41 -55 -64.5 -128t-25.5 -126q-33 -4 -53 -4q-12 0 -45 4z" />
<glyph unicode="&#xe000;" horiz-adv-x="1035" d="M0 1035h1035v-1035h-1035v1035z" />
</font>
</defs>
</svg>
